steven8001
齐天大圣
齐天大圣
  • 配音元23904元
  • 威望3690点
  • 贡献值0点
  • 交易币0元
  • 好评度104点
  • 社区居民
  • 忠实会员
阅读:2842回复:183

[百度][蕾丝(陕艺国语/英语).Lace.1984.DVDRip.MKV][1.83GB+1.27GB][美国]

楼主#
更多 发布于:2018-12-08 09:51

图片:p2538801110.jpg



导    演: 威廉·海尔 William Hale
编    剧: Shirley Conran
主    演: 菲比·凯茨
类    型: 剧情
制片国家: 美国
语    言: 陕艺国语 / 英语
字    幕:无
上映日期: 1984
片    长: 240分钟(分为上下两部)
又    名: 花债
剧情简介:
   《蕾丝》由美国八十年代的“漂亮宝贝”菲比·凯茨主演。
   这是蕾丝的第一部,故事讲述,一个名扬四方的S情片女星,在得知自己的身世后,决定去找自己的生母,费劲周折后,终于找到三个可能是她母亲的上流社会的女人,这三人也是高中时代的好朋友,她们却出于各自的原因,不肯认她,女孩愤怒之时,事情却峰回路转,她还是和生母幸福得团圆了……

陕西人民艺术剧院 1990年 译制,央视正大综艺第一、第二部都播映过。
译制导演: 蒋瑞征
配音演员: 王英、胡小莉、孙敏、王艳梅、宋照明、汪洋、征子

媒体信息:
      Complete name : E:\Downloads\蕾丝(上集).Lace.part1.1984.DVDRip.X264.2Audio-XYU.mkv
      Format : Matroska
      Format version : Version 4 / Version 2
      File size : 1.84 GiB
      Duration : 2h 21mn
      Overall bit rate : 1 859 Kbps
      Encoded date : UTC 2018-12-07 13:16:47
      Writing application : mkvmerge v7.5.0 ('Glass Culture') 32bit built on Jan  4 2015 16:37:25
      Writing library : libebml v1.3.1 + libmatroska v1.4.2
      _STATISTICS_WRITING_APP : mkvmerge v7.5.0 ('Glass Culture') 32bit built on Jan  4 2015 16:37:25
      _STATISTICS_WRITING_DATE_UTC : 2018-12-07 13:16:47
      _STATISTICS_TAGS : BPS DURATION NUMBER_OF_FRAMES NUMBER_OF_BYTES
      DURATION : 02:21:19.904000000
      NUMBER_OF_FRAMES : 264997
      NUMBER_OF_BYTES : 203517696
   Video #1
      ID : 1
      Format : AVC
      Format/Info : Advanced Video Codec
      Format profile : High@L3.1
      Format settings, CABAC : Yes
      Format settings, ReFrames : 3 frames
      Codec ID : V_MPEG4/ISO/AVC
      Duration : 2h 21mn
      Bit rate : 1 438 Kbps
      Width : 720 pixels
      Height : 544 pixels
      Display aspect ratio : 4:3
      Original display aspect ratio : 4:3
      Frame rate mode : Constant
      Frame rate : 23.976 fps
      Color space : YUV
      Chroma subsampling : 4:2:0
      Bit depth : 8 bits
      Scan type : Progressive
      Bits/(Pixel*Frame) : 0.153
      Stream size : 1.42 GiB (77%)
      Writing library : x264 core 148 r2744kMod b97ae06
      Encoding settings : cabac=1 / ref=3 / deblock=1:-2:-2 / analyse=0x3:0x113 / me=umh / subme=9 / psy=1 / fade_compensate=0.60 / psy_rd=1.00:0.00 / mixed_ref=1 / me_range=16 / chroma_me=1 / trellis=1 / 8x8dct=1 / cqm=0 / deadzone=21,11 / fast_pskip=1 / chroma_qp_offset=-5 / threads=6 / lookahead_threads=1 / sliced_threads=0 / nr=0 / decimate=1 / interlaced=0 / bluray_compat=0 / constrained_intra=0 / bframes=3 / b_pyramid=1 / b_adapt=1 / b_bias=0 / direct=1 / weightb=1 / open_gop=0 / weightp=2 / keyint=230 / keyint_min=23 / scenecut=50 / intra_refresh=0 / rc_lookahead=40 / rc=crf / mbtree=1 / crf=21.0000 / qcomp=0.60 / qpmin=0 / qpmax=40 / qpstep=4 / vbv_maxrate=17500 / vbv_bufsize=17500 / crf_max=0.0 / nal_hrd=none / filler=0 / ip_ratio=1.50 / aq=3:0.70
      Language : English
      Default : Yes
      Forced : No
      Color primaries : BT.709
      Transfer characteristics : BT.709
      Matrix coefficients : BT.709
      Color range : Limited
   Audio #2
      ID : 2
      Format : AC-3
      Format/Info : Audio Coding 3
      Mode extension : CM (complete main)
      Format settings, Endianness : Big
      Codec ID : A_AC3
      Duration : 2h 21mn
      Bit rate mode : Constant
      Bit rate : 192 Kbps
      Channel(s) : 2 channels
      Channel positions : Front: L R
      Sampling rate : 48.0 KHz
      Bit depth : 16 bits
      Compression mode : Lossy
      Stream size : 194 MiB (10%)
      Title : 陕艺国语
      Language : Chinese
      Default : Yes
      Forced : No
   Audio #3
      ID : 3
      Format : AC-3
      Format/Info : Audio Coding 3
      Mode extension : CM (complete main)
      Format settings, Endianness : Big
      Codec ID : A_AC3
      Duration : 2h 21mn
      Bit rate mode : Constant
      Bit rate : 192 Kbps
      Channel(s) : 2 channels
      Channel positions : Front: L R
      Sampling rate : 48.0 KHz
      Bit depth : 16 bits
      Compression mode : Lossy
      Stream size : 194 MiB (10%)
      Title : 英语
      Language : English
      Default : No
      Forced : No

图片:蕾丝(上集).Lace.part1.1984.DVDRip.X264.2Audio-XYU[22-11-23].JPG





图片:蕾丝(上集).Lace.part1.1984.DVDRip.X264.2Audio-XYU[22-11-49].JPG





图片:蕾丝(下集).Lace.part2.1984.DVDRip.X264.2Audio-XYU[22-13-38].JPG





图片:蕾丝(下集).Lace.part2.1984.DVDRip.X264.2Audio-XYU[22-14-39].JPG





图片:蕾丝(下集).Lace.part2.1984.DVDRip.X264.2Audio-XYU[22-15-12].JPG





本部分内容设定了隐藏,需要回复后才能看到
[steven8001于2018-12-08 09:53编辑了帖子]
zqszjr1967
齐天大圣
齐天大圣
  • 配音元4555元
  • 威望1957点
  • 贡献值0点
  • 交易币0元
  • 好评度0点
  • 社区居民
  • 忠实会员
1楼#
发布于:2018-12-08 09:54
好难得的怀旧国配系列剧,曾经的回忆
steven8001
齐天大圣
齐天大圣
  • 配音元23904元
  • 威望3690点
  • 贡献值0点
  • 交易币0元
  • 好评度104点
  • 社区居民
  • 忠实会员
2楼#
发布于:2018-12-08 09:56
原来发帖上传图片都是外链又拍网,现在又拍网维护不能上,论坛上传图片只能6张。哪位朋友能介绍个外链图片的网站。
侦察兵008
齐天大圣
齐天大圣
  • 配音元12904元
  • 威望12193点
  • 贡献值0点
  • 交易币0元
  • 好评度0点
  • 社区居民
  • 忠实会员
  • 最爱沙发
3楼#
发布于:2018-12-08 10:11
感谢楼主提供和分享。
去去
齐天大圣
齐天大圣
  • 配音元2882元
  • 威望195点
  • 贡献值0点
  • 交易币0元
  • 好评度1点
  • 社区居民
  • 忠实会员
4楼#
发布于:2018-12-08 10:23
非常感谢您的电影蕾丝
xhswlj
齐天大圣
齐天大圣
  • 配音元6516元
  • 威望1710点
  • 贡献值0点
  • 交易币0元
  • 好评度0点
  • 社区居民
  • 忠实会员
5楼#
发布于:2018-12-08 10:26
谢谢楼主分享稀有资源。
yehuiqin
齐天大圣
齐天大圣
  • 配音元5211元
  • 威望1230点
  • 贡献值0点
  • 交易币0元
  • 好评度0点
  • 社区居民
  • 忠实会员
6楼#
发布于:2018-12-08 10:27
画面调制得很好呀!谢谢分享!
ipconfig
齐天大圣
齐天大圣
  • 配音元6136元
  • 威望1769点
  • 贡献值0点
  • 交易币0元
  • 好评度0点
  • 社区居民
  • 忠实会员
7楼#
发布于:2018-12-08 10:31
菲比凯茨的影片,必须要支持,谢谢朋友上传分享。
勇作
齐天大圣
齐天大圣
  • 配音元101605元
  • 威望25099点
  • 贡献值100点
  • 交易币0元
  • 好评度2420点
  • 社区居民
  • 忠实会员
  • 最爱沙发
  • 社区明星
8楼#
发布于:2018-12-08 10:34
这就是那部美国电视剧《蕾丝》吗?感谢朋友无私分享陕艺国语版本,喜欢!

上视也曾译配过。配音演员:张欢、梅梅、丁建华、曹雷 等





“翻译要有味,配音要有神。”
steven8001
齐天大圣
齐天大圣
  • 配音元23904元
  • 威望3690点
  • 贡献值0点
  • 交易币0元
  • 好评度104点
  • 社区居民
  • 忠实会员
9楼#
发布于:2018-12-08 10:37
勇作:这就是那部美国电视剧《蕾丝》吗?感谢朋友无私分享陕艺国语版本,喜欢!

上视也曾译配过。配音演员:张欢、梅梅、丁建华、曹雷 等
回到原帖
上视好像85年第二部也配过,记得看过,第一部找老妈,第二部找老爸。可惜看不到了
春雨弯刀
齐天大圣
齐天大圣
  • 配音元1978元
  • 威望312点
  • 贡献值0点
  • 交易币0元
  • 好评度0点
  • 社区居民
  • 忠实会员
10楼#
发布于:2018-12-08 10:45
谢谢楼主分享经典电影!
whjdbyyrllh
齐天大圣
齐天大圣
  • 配音元5873元
  • 威望2015点
  • 贡献值0点
  • 交易币0元
  • 好评度0点
  • 社区居民
  • 忠实会员
11楼#
发布于:2018-12-08 11:01
蕾丝是一种网眼组织,最早由钩针手工编织。
生活多美好
太上老君
太上老君
  • 配音元669元
  • 威望95点
  • 贡献值0点
  • 交易币0元
  • 好评度0点
  • 社区居民
  • 忠实会员
12楼#
发布于:2018-12-08 11:05
感谢分享
montaqe
荣誉会员
荣誉会员
  • 配音元25311元
  • 威望1616点
  • 贡献值1点
  • 交易币0元
  • 好评度262点
  • 网站建设奖
  • 社区居民
  • 忠实会员
13楼#
发布于:2018-12-08 11:07
谢谢上传
http://shop.kongfz.com/book/15113/index.html
盐水毛豆2015
齐天大圣
齐天大圣
  • 配音元3058元
  • 威望976点
  • 贡献值0点
  • 交易币0元
  • 好评度0点
  • 社区居民
  • 忠实会员
14楼#
发布于:2018-12-08 11:15
感谢分享经典译制片蕾丝
anfield
齐天大圣
齐天大圣
  • 配音元2900元
  • 威望467点
  • 贡献值0点
  • 交易币0元
  • 好评度0点
  • 社区居民
  • 忠实会员
15楼#
发布于:2018-12-08 12:00
没听过这部电影,多谢您分享经典之作,谨祝身体健康、欢度周末!
liujun228
齐天大圣
齐天大圣
  • 配音元3016元
  • 威望2003点
  • 贡献值0点
  • 交易币0元
  • 好评度0点
  • 社区居民
  • 忠实会员
16楼#
发布于:2018-12-08 12:02
谢谢分享
weizg09
齐天大圣
齐天大圣
  • 配音元9937元
  • 威望8009点
  • 贡献值1点
  • 交易币0元
  • 好评度1976点
  • 社区居民
  • 忠实会员
  • 最爱沙发
17楼#
发布于:2018-12-08 12:04
非常珍贵资源,感谢朋友分享。
aichanmao
齐天大圣
齐天大圣
  • 配音元9712元
  • 威望5235点
  • 贡献值0点
  • 交易币0元
  • 好评度0点
  • 社区居民
  • 忠实会员
  • 最爱沙发
18楼#
发布于:2018-12-08 12:22
谢谢楼主分享稀有资源
jiajia
齐天大圣
齐天大圣
  • 配音元4722元
  • 威望2478点
  • 贡献值0点
  • 交易币0元
  • 好评度0点
  • 社区居民
  • 忠实会员
19楼#
发布于:2018-12-08 12:51
看过介绍,有印象,今日有幸看到剧集,多谢楼主分享
上一页
游客

返回顶部